Перейти к содержимому

Телесериал.com

Собираем средства на русский перевод Санта Барбары!

Последние сообщения

Сообщений в теме: 1649
#1571
serge19
serge19
  • Автор темы
  • Заслуженный участник
  • PipPipPipPipPip
  • Группа: Участники
  • Регистрация: 20 Ноя 2008, 12:15
  • Сообщений: 5650
  • Откуда: Украина, г.Ровно
  • Пол:

Большое спасибо Nataly81 и Olek за взносы на перевод этой серии :rose: !

На сегодняшний день на русском можно посмотреть абсолютно все серии 2041-2083 финального блока (2041-2059 с русской озвучкой, дальше с субтитрами)!

Пока что ждём взносы на перевод следующих серий финального блока и готовим субтитры к ним (большая часть этих серий уже переведена). На данный момент уже готовы субтитры к следующей серии - №2084 и идёт работа над субтитрами к серии №2085 (последней серии октября 1992 года).
 

#1572
serge19
serge19
  • Автор темы
  • Заслуженный участник
  • PipPipPipPipPip
  • Группа: Участники
  • Регистрация: 20 Ноя 2008, 12:15
  • Сообщений: 5650
  • Откуда: Украина, г.Ровно
  • Пол:



Спасибо dae за взнос на перевод этой серии :hat: !

Ещё заменил в сводном списке старые версии субтитров к сериям №504, №506 и №507 на новые с несколькими исправлениями.

На сегодняшний день на русском можно посмотреть все серии 1-508!

У нас уже почти готовы все субтитры к сериям 509-522. Сейчас окончательно оформляю их и опубликую в ближайшие дни!


 

#1573
serge19
serge19
  • Автор темы
  • Заслуженный участник
  • PipPipPipPipPip
  • Группа: Участники
  • Регистрация: 20 Ноя 2008, 12:15
  • Сообщений: 5650
  • Откуда: Украина, г.Ровно
  • Пол:

Спасибо Наталья555 за взнос на перевод этой серии :rose: !



Спасибо нафтуся за взнос на перевод этой серии :rose: !

На сегодняшний день на русском можно посмотреть все серии 1-510!


 

#1574
serge19
serge19
  • Автор темы
  • Заслуженный участник
  • PipPipPipPipPip
  • Группа: Участники
  • Регистрация: 20 Ноя 2008, 12:15
  • Сообщений: 5650
  • Откуда: Украина, г.Ровно
  • Пол:
Спасибо Благодарная за взнос на перевод этой серии :rose: !

Спасибо Благодарная за взнос на перевод этой серии :rose: !

На сегодняшний день на русском можно посмотреть все серии 1-512!


Сообщение отредактировал serge19: Среда, 12 июня 2019, 23:31:20

 

#1575
serge19
serge19
  • Автор темы
  • Заслуженный участник
  • PipPipPipPipPip
  • Группа: Участники
  • Регистрация: 20 Ноя 2008, 12:15
  • Сообщений: 5650
  • Откуда: Украина, г.Ровно
  • Пол:

Спасибо Благодарная за взнос на перевод этой серии :rose: !

Также обновил ссылки на субтитры к сериям 506-510. В новых версиях Angie23 исправила ряд ошибок.

На сегодняшний день на русском можно посмотреть все серии 1-513!


 

#1576
Благодарная
Благодарная
  • Участник
  • PipPipPip
  • Группа: Участники
  • Регистрация: 10 мая 2013, 06:00
  • Сообщений: 217
  • Откуда: Москва
  • Пол:


Также обновил ссылки на субтитры к сериям 506-510. В новых версиях Angie23 исправила ряд ошибок.


В сводном списке или ссылки в этой теме? Заранее спасибо за ответ
 

#1577
serge19
serge19
  • Автор темы
  • Заслуженный участник
  • PipPipPipPipPip
  • Группа: Участники
  • Регистрация: 20 Ноя 2008, 12:15
  • Сообщений: 5650
  • Откуда: Украина, г.Ровно
  • Пол:

Просмотр сообщенияБлагодарная (Четверг, 13 июня 2019, 22:23:07) писал:

Также обновил ссылки на субтитры к сериям 506-510. В новых версиях Angie23 исправила ряд ошибок.


В сводном списке или ссылки в этой теме? Заранее спасибо за ответ

В сводном списке. Всегда обновляю именно там.

Сообщение отредактировал serge19: Четверг, 13 июня 2019, 22:26:06

 

#1578
serge19
serge19
  • Автор темы
  • Заслуженный участник
  • PipPipPipPipPip
  • Группа: Участники
  • Регистрация: 20 Ноя 2008, 12:15
  • Сообщений: 5650
  • Откуда: Украина, г.Ровно
  • Пол:
Спасибо Благодарная за взнос на перевод этой серии :rose: !

Спасибо pfed за взнос на перевод этой серии :hat:!

Спасибо Благодарная за взнос на перевод этой серии :rose: !

Спасибо Благодарная за взнос на перевод этой серии :rose: !

Спасибо Наталья555 за взнос на перевод этой серии :rose: !

Спасибо нафтуся за взнос на перевод этой серии :rose: !

Спасибо нафтуся за взнос на перевод этой серии :rose: !

Спасибо Наталья555 за взнос на перевод этой серии :rose: !

Спасибо нафтуся за взнос на перевод этой серии :rose: !

На сегодняшний день на русском можно посмотреть все серии 1-522!


Сообщение отредактировал serge19: Пятница, 14 июня 2019, 23:46:37

 

#1579
krvarg
krvarg
  • Участник
  • PipPipPip
  • Группа: Участники
  • Регистрация: 6 Апр 2002, 16:26
  • Сообщений: 124
  • Пол:
Огромная просьба при сборке серий отключать опцию "Packet bitstream", т.к. она несовместима со старыми плеерами (отключается в настройках кодека или для собранных серий пересборка утилитой MPEG4Modifier).

General
Complete name : D:\Santa-Barbara\0505-24July86-ruen-en-S73.avi
Format : AVI
Format/Info : Audio Video Interleave
File size : 696 MiB
Duration : 43 min 8 s
Overall bit rate : 2 257 kb/s
Writing application : VirtualDubModRus 1.5.10.2 (build 2542/release)
Writing library : VirtualDubMod build 2542/release

Video
ID : 0
Format : MPEG-4 Visual
Format profile : Advanced Simple@L5
Format settings : BVOP2
Format settings, BVOP : 2
Format settings, QPel : No
Format settings, GMC : No warppoints
Format settings, Matrix : Default (H.263)
Muxing mode : Packed bitstream
Codec ID : XVID
Codec ID/Hint : XviD
Duration : 43 min 8 s
Bit rate : 1 986 kb/s
Width : 720 pixels
Height : 540 pixels
Display aspect ratio : 4:3
Frame rate : 25.000 FPS
Color space : YUV
Chroma subsampling : 4:2:0
Bit depth : 8 bits
Scan type : Progressive
Compression mode : Lossy
Bits/(Pixel*Frame) : 0.204
Stream size : 613 MiB (88%)
Writing library : XviD 1.2.1 (UTC 2008-12-04)

Audio #1
ID : 1
Format : MPEG Audio
Format version : Version 1
Format profile : Layer 3
Format settings : Joint stereo / MS Stereo
Codec ID : 55
Codec ID/Hint : MP3
Duration : 43 min 8 s
Bit rate mode : Constant
Bit rate : 128 kb/s
Channel(s) : 2 channels
Sampling rate : 48.0 kHz
Compression mode : Lossy
Stream size : 39.5 MiB (6%)
Alignment : Split across interleaves
Interleave, duration : 40 ms (1.00 video frame)
Interleave, preload duration : 500 ms
Title : RUS ('Русское Видео')

Audio #2
ID : 2
Format : MPEG Audio
Format version : Version 1
Format profile : Layer 3
Format settings : Joint stereo / MS Stereo
Codec ID : 55
Codec ID/Hint : MP3
Duration : 43 min 8 s
Bit rate mode : Constant
Bit rate : 128 kb/s
Channel(s) : 2 channels
Sampling rate : 48.0 kHz
Compression mode : Lossy
Stream size : 39.5 MiB (6%)
Alignment : Split across interleaves
Interleave, duration : 40 ms (1.00 video frame)
Interleave, preload duration : 500 ms
Title : EN (Английский)

Сообщение отредактировал krvarg: Воскресенье, 16 июня 2019, 09:30:54

 

#1580
Благодарная
Благодарная
  • Участник
  • PipPipPip
  • Группа: Участники
  • Регистрация: 10 мая 2013, 06:00
  • Сообщений: 217
  • Откуда: Москва
  • Пол:
Вижу что в последних сериях не использован тот материал русской озвучки, который я передавала. Например, в сценах Круз и Иден на пляже. А насколько я помню далее тоже будут приличные фрагменты на русском. Ведь не помешает услышать дополнительно героев в озвучке Русского видео.

 


0 посетителей читают эту тему: 0 участников и 0 гостей